Fukrey Returns (2017) - 720p - DesiRip - Hindi - x264 - AC3 - Maf...

  • Category Movies
  • Type Bollywood
  • Language Hindi
  • Total size 1.0 GB
  • Uploaded By Mafiaking
  • Downloads 27328
  • Last checked 1 month ago
  • Date uploaded 1 month ago
  • Seeders 132
  • Leechers 153

Fukrey Returns

RomanceComedyDrama

Mayhem continues in the sequel to Fukrey.

Infohash : 0A52BE7027EA1493041E4C8FC04624A41C89A586










Quote:







Ratings: 7.5/10

Genere:      Comedy, Drama, Romance

General
Complete name               : Fukrey Returns (2017) - 720p - PreDVDRip - Hindi - x264 - AC3 - Mafiaking - M2Tv.mkv
Format                      : Matroska
Format version              : Version 4 / Version 2
File size                   : 1.02 GiB
Duration                    : 2 h 15 min
Overall bit rate            : 1 080 kb/s
Movie name                  : Fukrey Returns (2017) - 720p - PreDVDRip - Hindi - x264 - AC3 - Mafiaking - M2Tv

Video
ID                          : 1
Format                      : AVC
Format/Info                 : Advanced Video Codec
Format profile              : [email protected]
Format settings, CABAC      : Yes
Format settings, RefFrames  : 4 frames
Codec ID                    : V_MPEG4/ISO/AVC
Duration                    : 2 h 15 min
Bit rate                    : 950 kb/s
Width                       : 1 280 pixels
Height                      : 544 pixels
Display aspect ratio        : 2.35:1
Frame rate mode             : Constant
Frame rate                  : 29.970 (30000/1001) FPS
Color space                 : YUV
Chroma subsampling          : 4:2:0
Bit depth                   : 8 bits
Scan type                   : Progressive
Bits/(Pixel*Frame)          : 0.046
Stream size                 : 918 MiB (88%)
Title                       : Mafiaking
Language                    : Hindi
Default                     : Yes
Forced                      : No

Audio
ID                          : 2
Format                      : AC-3
Format/Info                 : Audio Coding 3
Format settings, Endianness : Big
Codec ID                    : A_AC3
Duration                    : 2 h 15 min
Bit rate mode               : Constant
Bit rate                    : 128 kb/s
Channel(s)                  : 2 channels
Channel positions           : Front: L R
Sampling rate               : 48.0 kHz
Frame rate                  : 31.250 FPS (1536 SPF)
Bit depth                   : 16 bits
Compression mode            : Lossy
Stream size                 : 124 MiB (12%)
Title                       : Mafiaking
Language                    : Hindi
Service kind                : Complete Main
Default                     : Yes
Forced                      : No

SAMPLE WITH IN TORRENT





**To View Image In Full Size Click on Thumbnails**


Files:

Fukrey Returns 2017 720p PreDVDRip x264 AC3 M2Tv
  • Fukrey Returns 2017 720p PreDVDRip x264 AC3 M2Tv.mkv (1.0 GB)
  • SaMple.mkv (7.1 MB)
  • To keep M2Tv going please read.txt (0.2 KB)
  • RegistrationOpen on NBTorrents.txt (0.1 KB)
  • Torrent Downloaded From NextBit Torrents.txt (0.0 KB)

Comments

Code:

  • udp://tracker.coppersurfer.tk:6969/announce
  • udp://thetracker.org:80/announce
  • udp://tracker.leechers-paradise.org:6969/announce
  • udp://eddie4.nl:6969/announce
  • udp://zer0day.ch:1337/announce
  • udp://tracker.sktorrent.net:6969/announce
  • udp://9.rarbg.me:2710/announce
  • udp://9.rarbg.to:2710/announce
  • udp://torrent.gresille.org:80/announce
  • udp://tracker.aletorrenty.pl:2710/announce
  • udp://tracker.piratepublic.com:1337/announce
  • udp://tracker.opentrackr.org:1337/announce
  • udp://explodie.org:6969/announce
  • udp://p4p.arenabg.ch:1337/announce