- Jumanji 2017 720p NEW HDTS x264 AC3 TiTAN

  • Category Movies
  • Type Divx/Xvid
  • Language English
  • Total size 2.6 GB
  • Uploaded By mazemaze16
  • Downloads 1168
  • Last checked 1 week ago
  • Date uploaded 2 weeks ago
  • Seeders 114
  • Leechers 40

Jumanji: Welcome to the Jungle

ActionAdventureComedyFamily

The tables are turned as four teenagers are sucked into Jumanji's world - pitted against rhinos, black mambas and an endless variety of jungle traps and puzzles. To survive, they'll play as characters from the game.

Infohash : 540E963BAC2872B0DA7E1B2457936060D40B8062




Jumanji 2017 720p NEW HDTS x264 AC3 TiTAN




http://www.imdb.com/title/tt2283362/

Source: Video: A friend/ A: CPG

General

Format : Matroska
Format version : Version 2
File size : 2.62 GiB
Duration : 1h 50mn
Overall bit rate mode : Variable
Overall bit rate : 3 410 Kbps

Video
ID : 1
Format : AVC
Format/Info : Advanced Video Codec
Format profile : [email protected]
Format settings, CABAC : Yes
Format settings, ReFrames : 3 frames
Codec ID : V_MPEG4/ISO/AVC
Duration : 1h 50mn
Bit rate mode : Variable
Bit rate : 3 280 Kbps
Maximum bit rate : 40.0 Mbps
Width : 1 072 pixels
Height : 448 pixels
Display aspect ratio : 2.40:1
Frame rate mode : Constant
Frame rate : 30.000 fps
Color space : YUV
Chroma subsampling : 4:2:0
Bit depth : 8 bits
Scan type : Progressive
Bits/(Pixel*Frame) : 0.228
Stream size : 2.47 GiB (94%)
Default : Yes
Forced : No
Color primaries : BT.709
Transfer characteristics : BT.709
Matrix coefficients : BT.709

Audio
ID : 2
Format : MPEG Audio
Format version : Version 1
Format profile : Layer 3
Mode : Joint stereo
Codec ID : A_MPEG/L3
Codec ID/Hint : MP3
Duration : 1h 50mn
Bit rate mode : Constant
Bit rate : 128 Kbps
Channel(s) : 2 channels
Sampling rate : 44.1 KHz
Compression mode : Lossy
Stream size : 101 MiB (4%)
Writing library : LAME3.100ª
Default : Yes
Forced : No

Screens:



Files:

- Jumanji 2017 720p NEW HDTS x264 AC3 TiTAN
  • Jumanji 2017 720p NEW HDTS x264 AC3 TiTAN.mkv (2.6 GB)

There are currently no comments. Feel free to leave one :)

Code:

  • udp://tracker.ilibr.org:6969/announce
  • udp://9.rarbg.com:2710/announce
  • udp://9.rarbg.to:2710/announce
  • udp://tracker.leechers-paradise.org:6969/announce
  • udp://eddie4.nl:6969/announce
  • udp://ipv4.tracker.harry.lu:80/announce
  • udp://explodie.org:6969/announce
  • udp://p4p.arenabg.com:1337/announce
  • udp://p4p.arenabg.ch:1337/announce
  • udp://tracker.zer0day.to:1337/announce
  • udp://tracker.opentrackr.org:1337/announce
  • udp://tracker.ilibr.org:80/announce
  • udp://tracker.coppersurfer.tk:6969/announce
  • udp://tracker.coppersurfer.tk:6969
  • udp://9.rarbg.me:2710/announce