Batman Returns (1992) (1080p BluRay x265 HEVC 10bit TrueHD 5.1 Qm...

  • Category Movies
  • Type HEVC/x265
  • Language English
  • Total size 7.7 GB
  • Uploaded By UTRCorp
  • Downloads 110
  • Last checked 1 week ago
  • Date uploaded 2 weeks ago
  • Seeders 3
  • Leechers 3

Batman Returns

ActionCrimeFantasyScience FictionThriller

Having defeated the Joker, Batman now faces the Penguin - a warped and deformed individual who is intent on being accepted into Gotham society. Crooked businessman Max Schreck is coerced into helping him become Mayor of Gotham and they both attempt to expose Batman in a different light. Selina Kyle, Max's secretary, is thrown from the top of a building and is transformed into Catwoman - a mysterious figure who has the same personality disorder as Batman. Batman must attempt to clear his name, all the time deciding just what must be done with the Catwoman.

Infohash : E4572BD1FB4F67A0EA88561747B16FC729589940










Media Information

Media Information

Code:

General
Format : Matroska
Format version : Version 4 / Version 2
File size : 7.74 GiB
Duration : 2 h 6 min
Overall bit rate mode : Variable
Overall bit rate : 8 759 kb/s
Encoded date : UTC 2017-12-31 08:47:44
Writing application : mkvmerge v19.0.0 ('Brave Captain') 64-bit
Writing library : libebml v1.3.5 + libmatroska v1.4.8

Video
ID : 1
Format : HEVC
Format/Info : High Efficiency Video Coding
Format profile : Main [email protected]@Main
Codec ID : V_MPEGH/ISO/HEVC
Duration : 2 h 6 min
Bit rate : 6 997 kb/s
Width : 1 920 pixels
Height : 1 080 pixels
Display aspect ratio : 16:9
Frame rate mode : Constant
Frame rate : 23.976 (24000/1001) FPS
Color space : YUV
Chroma subsampling : 4:2:0
Bit depth : 10 bits
Bits/(Pixel*Frame) : 0.141
Stream size : 6.18 GiB (80%)
Writing library : x265 2.6+15-57eaef9abfd8:[Windows][MSVC 1912][64 bit] 10bit
Encoding settings : cpuid=1173503 / frame-threads=4 / numa-pools=16 / wpp / no-pmode / no-pme / no-psnr / no-ssim / log-level=2 / input-csp=1 / input-res=1920x1080 / interlace=0 / total-frames=181953 / level-idc=0 / high-tier=1 / uhd-bd=0 / ref=4 / no-allow-non-conformance / no-repeat-headers / annexb / no-aud / no-hrd / info / hash=0 / no-temporal-layers / open-gop / min-keyint=23 / keyint=250 / gop-lookahead=0 / bframes=8 / b-adapt=2 / b-pyramid / bframe-bias=0 / rc-lookahead=50 / lookahead-slices=4 / scenecut=40 / no-intra-refresh / ctu=64 / min-cu-size=8 / no-rect / no-amp / max-tu-size=32 / tu-inter-depth=1 / tu-intra-depth=1 / limit-tu=0 / rdoq-level=2 / dynamic-rd=0.00 / no-ssim-rd / signhide / no-tskip / nr-intra=0 / nr-inter=0 / no-constrained-intra / no-strong-intra-smoothing / max-merge=3 / limit-refs=3 / limit-modes / me=3 / subme=3 / merange=57 / temporal-mvp / weightp / no-weightb / no-analyze-src-pics / deblock=-1:-1 / no-sao / no-sao-non-deblock / rd=4 / no-early-skip / no-rskip / no-fast-intra / no-tskip-fast / no-cu-lossless / b-intra / no-splitrd-skip / rdpenalty=0 / psy-rd=1.00 / psy-rdoq=2.50 / no-rd-refine / analysis-reuse-mode=0 / no-lossless / cbqpoffs=0 / crqpoffs=0 / rc=crf / crf=20.0 / qcomp=0.60 / qpstep=4 / stats-write=0 / stats-read=0 / ipratio=1.40 / pbratio=1.30 / aq-mode=3 / aq-strength=0.60 / cutree / zone-count=0 / no-strict-cbr / qg-size=32 / no-rc-grain / qpmax=69 / qpmin=0 / no-const-vbv / sar=0 / overscan=0 / videoformat=5 / range=0 / colorprim=2 / transfer=2 / colormatrix=2 / chromaloc=0 / display-window=0 / max-cll=0,0 / min-luma=0 / max-luma=1023 / log2-max-poc-lsb=8 / vui-timing-info / vui-hrd-info / slices=1 / no-opt-qp-pps / no-opt-ref-list-length-pps / no-multi-pass-opt-rps / scenecut-bias=0.05 / no-opt-cu-delta-qp / no-aq-motion / no-hdr / no-hdr-opt / no-dhdr10-opt / analysis-reuse-level=5 / scale-factor=0 / refine-intra=0 / refine-inter=0 / refine-mv=0 / no-limit-sao / ctu-info=0 / no-lowpass-dct / refine-mv-type=0 / copy-pic=1
Language : English
Default : Yes
Forced : No

Audio
ID : 2
Format : TrueHD
Codec ID : A_TRUEHD
Duration : 2 h 6 min
Bit rate mode : Variable
Bit rate : 1 684 kb/s
Maximum bit rate : 2 967 kb/s
Channel(s) : 6 channels
Channel positions : Front: L C R, Side: L R, LFE
Sampling rate : 48.0 kHz
Frame rate : 1 200.000 FPS (40 spf)
Compression mode : Lossless
Stream size : 1.49 GiB (19%)
Language : English
Default : Yes
Forced : No

Subtitle
ID : 3
Format : PGS
Muxing mode : zlib
Codec ID : S_HDMV/PGS
Codec ID/Info : Picture based subtitle format used on BDs/HD-DVDs
Duration : 2 h 4 min
Bit rate : 21.5 kb/s
Count of elements : 2020
Stream size : 19.2 MiB (0%)
Language : English
Default : Yes
Forced : No

Menu
00:00:00.000 : en:Chapter 01
00:02:22.934 : en:Chapter 02
00:05:30.538 : en:Chapter 03
00:07:10.012 : en:Chapter 04
00:09:22.645 : en:Chapter 05
00:12:47.933 : en:Chapter 06
00:17:13.032 : en:Chapter 07
00:23:11.431 : en:Chapter 08
00:25:18.892 : en:Chapter 09
00:28:30.125 : en:Chapter 10
00:33:51.029 : en:Chapter 11
00:40:26.715 : en:Chapter 12
00:43:04.039 : en:Chapter 13
00:44:12.024 : en:Chapter 14
00:48:31.116 : en:Chapter 15
00:54:08.245 : en:Chapter 16
00:55:47.677 : en:Chapter 17
00:57:59.601 : en:Chapter 18
00:59:43.955 : en:Chapter 19
01:02:15.606 : en:Chapter 20
01:07:47.605 : en:Chapter 21
01:10:01.947 : en:Chapter 22
01:13:08.842 : en:Chapter 23
01:17:58.965 : en:Chapter 24
01:20:42.420 : en:Chapter 25
01:22:29.486 : en:Chapter 26
01:26:43.990 : en:Chapter 27
01:31:44.874 : en:Chapter 28
01:33:47.455 : en:Chapter 29
01:38:13.762 : en:Chapter 30
01:40:38.407 : en:Chapter 31
01:42:44.032 : en:Chapter 32
01:44:08.450 : en:Chapter 33
01:48:42.516 : en:Chapter 34
01:50:45.347 : en:Chapter 35
01:53:55.995 : en:Chapter 36
01:55:46.272 : en:Chapter 37
01:58:21.761 : en:Chapter 38
02:00:50.660 : en:Chapter 39



Source Information

Code:

Release:
Unknown Source/NO-GROUP


Files:

  • Batman.Returns.1992.1080p.Bluray.10-bit.x265.TrueHD.5.1-Qman[UTR].mkv (7.7 GB)

Comments

Code:

  • udp://9.rarbg.com:2710/announce
  • udp://tracker.opentrackr.org:1337/announce
  • udp://tracker.torrent.eu.org:451/announce
  • udp://tracker.leechers-paradise.org:6969/announce
  • udp://tracker.coppersurfer.tk:6969/announce