Pirates of the Caribbean: Dead Men Tell No Tales (2017) (2160p Bl...

  • Category Movies
  • Type HEVC/x265
  • Language English
  • Total size 6.3 GB
  • Uploaded By UTRCorp
  • Downloads 341
  • Last checked 1 week ago
  • Date uploaded 2 weeks ago
  • Seeders 65
  • Leechers 27

Infohash : 5FF71EB69CF007738D810C506AF12F0ADB1A97A7








Media Information

Media Information

Code:

General
Format : Matroska
Format version : Version 4 / Version 2
File size : 6.03 GiB
Duration : 2 h 13 min
Overall bit rate : 6 450 kb/s
Movie name : Pirates of the Caribbean Dead Men Tell No Tales 2017 (2160p x265 10bit S89 Joy)[UTR]
Encoded date : UTC 2017-12-09 06:34:03
Writing application : mkvmerge v17.0.0 ('Be Ur Friend') 64-bit
Writing library : libebml v1.3.5 + libmatroska v1.4.8
Cover : Yes
Attachments : cover.jpg
Writing frontend : StaxRip v1.6.0.1

Video
ID : 1
Format : HEVC
Format/Info : High Efficiency Video Coding
Format profile : Main [email protected]@Main
Codec ID : V_MPEGH/ISO/HEVC
Duration : 2 h 9 min
Bit rate : 5 999 kb/s
Width : 3 840 pixels
Height : 1 600 pixels
Display aspect ratio : 2.40:1
Frame rate mode : Constant
Frame rate : 23.976 (24000/1001) FPS
Color space : YUV
Chroma subsampling : 4:2:0
Bit depth : 10 bits
Bits/(Pixel*Frame) : 0.041
Stream size : 5.41 GiB (90%)
Writing library : x265 2.5+27-0e168bdeb48b:[Windows][MSVC 1911][64 bit] 10bit
Encoding settings : cpuid=1173503 / frame-threads=3 / numa-pools=8 / wpp / no-pmode / no-pme / no-psnr / ssim / log-level=2 / input-csp=1 / input-res=3840x1600 / interlace=0 / total-frames=185724 / level-idc=0 / high-tier=1 / uhd-bd=0 / ref=3 / no-allow-non-conformance / no-repeat-headers / annexb / no-aud / no-hrd / info / hash=0 / no-temporal-layers / open-gop / min-keyint=23 / keyint=250 / bframes=4 / b-adapt=2 / b-pyramid / bframe-bias=0 / rc-lookahead=50 / lookahead-slices=8 / scenecut=40 / no-intra-refresh / ctu=64 / min-cu-size=8 / no-rect / no-amp / max-tu-size=32 / tu-inter-depth=1 / tu-intra-depth=1 / limit-tu=0 / rdoq-level=1 / dynamic-rd=0.00 / ssim-rd / signhide / no-tskip / nr-intra=0 / nr-inter=0 / no-constrained-intra / strong-intra-smoothing / max-merge=2 / limit-refs=3 / no-limit-modes / me=1 / subme=2 / merange=57 / temporal-mvp / weightp / no-weightb / no-analyze-src-pics / deblock=-2:-2 / sao / no-sao-non-deblock / rd=3 / no-early-skip / rskip / no-fast-intra / no-tskip-fast / no-cu-lossless / b-intra / no-splitrd-skip / rdpenalty=0 / psy-rd=0.00 / psy-rdoq=0.00 / no-rd-refine / analysis-reuse-mode=0 / no-lossless / cbqpoffs=0 / crqpoffs=0 / rc=abr / bitrate=6000 / qcomp=0.60 / qpstep=4 / stats-write=0 / stats-read=2 / cplxblur=20.0 / qblur=0.5 / ipratio=1.40 / pbratio=1.30 / aq-mode=3 / aq-strength=1.00 / cutree / zone-count=0 / no-strict-cbr / qg-size=32 / no-rc-grain / qpmax=69 / qpmin=0 / no-const-vbv / sar=0 / overscan=0 / videoformat=5 / range=0 / colorprim=2 / transfer=2 / colormatrix=2 / chromaloc=0 / display-window=0 / max-cll=0,0 / min-luma=0 / max-luma=1023 / log2-max-poc-lsb=8 / vui-timing-info / vui-hrd-info / slices=1 / opt-qp-pps / opt-ref-list-length-pps / no-multi-pass-opt-rps / scenecut-bias=0.05 / no-opt-cu-delta-qp / no-aq-motion / no-hdr / no-hdr-opt / no-dhdr10-opt / analysis-reuse-level=5 / scale-factor=0 / refine-intra=0 / refine-inter=0 / refine-mv=0 / limit-sao / ctu-info=0
Default : Yes
Forced : No

Audio #1
ID : 2
Format : AAC
Format/Info : Advanced Audio Codec
Format profile : LC
Codec ID : A_AAC
Duration : 2 h 9 min
Bit rate : 414 kb/s
Channel(s) : 8 channels
Channel positions : Front: L C R, Side: 4, LFE
Sampling rate : 48.0 kHz
Frame rate : 46.875 FPS (1024 spf)
Compression mode : Lossy
Delay relative to video : 20 ms
Stream size : 383 MiB (6%)
Language : English
Default : No
Forced : No

Audio #2
ID : 3
Format : AAC
Format/Info : Advanced Audio Codec
Format profile : HE-AAC / LC
Codec ID : A_AAC
Duration : 2 h 9 min
Bit rate : 51.6 kb/s
Channel(s) : 2 channels
Channel positions : Front: L R
Sampling rate : 48.0 kHz / 24.0 kHz
Frame rate : 23.438 FPS (1024 spf)
Compression mode : Lossy
Delay relative to video : 31 ms
Stream size : 47.6 MiB (1%)
Title : Commentary
Language : English
Default : No
Forced : No

Audio #3
ID : 10
Format : AAC
Format/Info : Advanced Audio Codec
Format profile : LC
Codec ID : A_AAC
Duration : 2 h 9 min
Bit rate : 86.1 kb/s
Channel(s) : 2 channels
Channel positions : Front: L R
Sampling rate : 48.0 kHz
Frame rate : 46.875 FPS (1024 spf)
Compression mode : Lossy
Delay relative to video : 9 ms
Stream size : 79.5 MiB (1%)
Language : Russian
Default : No
Forced : No

Audio #4
ID : 11
Format : AAC
Format/Info : Advanced Audio Codec
Format profile : LC
Codec ID : A_AAC
Duration : 2 h 9 min
Bit rate : 86.4 kb/s
Channel(s) : 2 channels
Channel positions : Front: L R
Sampling rate : 48.0 kHz
Frame rate : 46.875 FPS (1024 spf)
Compression mode : Lossy
Delay relative to video : 9 ms
Stream size : 79.8 MiB (1%)
Language : Chinese
Default : No
Forced : No

Subtitle #1
ID : 4
Format : PGS
Muxing mode : zlib
Codec ID : S_HDMV/PGS
Codec ID/Info : Picture based subtitle format used on BDs/HD-DVDs
Duration : 2 h 7 min
Bit rate : 33.1 kb/s
Count of elements : 3544
Stream size : 30.3 MiB (0%)
Language : English
Default : No
Forced : No

Subtitle #2
ID : 5
Format : VobSub
Muxing mode : zlib
Codec ID : S_VOBSUB
Codec ID/Info : Picture based subtitle format used on DVDs
Duration : 1 h 59 min
Bit rate : 7 898 b/s
Count of elements : 1372
Stream size : 6.77 MiB (0%)
Language : French
Default : No
Forced : No

Subtitle #3
ID : 6
Format : VobSub
Muxing mode : zlib
Codec ID : S_VOBSUB
Codec ID/Info : Picture based subtitle format used on DVDs
Duration : 1 h 59 min
Bit rate : 7 698 b/s
Count of elements : 1319
Stream size : 6.57 MiB (0%)
Language : Spanish
Default : No
Forced : No

Subtitle #4
ID : 7
Format : VobSub
Muxing mode : zlib
Codec ID : S_VOBSUB
Codec ID/Info : Picture based subtitle format used on DVDs
Duration : 1 h 59 min
Bit rate : 4 157 b/s
Count of elements : 1323
Stream size : 3.55 MiB (0%)
Language : Chinese
Default : No
Forced : No

Subtitle #5
ID : 8
Format : VobSub
Muxing mode : zlib
Codec ID : S_VOBSUB
Codec ID/Info : Picture based subtitle format used on DVDs
Duration : 2 h 4 min
Bit rate : 4 503 b/s
Count of elements : 1188
Stream size : 4.01 MiB (0%)
Language : Japanese
Default : No
Forced : No

Subtitle #6
ID : 9
Format : VobSub
Muxing mode : zlib
Codec ID : S_VOBSUB
Codec ID/Info : Picture based subtitle format used on DVDs
Duration : 1 h 59 min
Bit rate : 4 855 b/s
Count of elements : 1369
Stream size : 4.14 MiB (0%)
Language : Chinese
Default : No
Forced : No

Subtitle #7
ID : 12
Format : VobSub
Muxing mode : zlib
Codec ID : S_VOBSUB
Codec ID/Info : Picture based subtitle format used on DVDs
Duration : 1 h 59 min
Bit rate : 7 535 b/s
Count of elements : 1319
Stream size : 6.43 MiB (0%)
Language : Russian
Default : No
Forced : No

Subtitle #8
ID : 13
Format : VobSub
Muxing mode : zlib
Codec ID : S_VOBSUB
Codec ID/Info : Picture based subtitle format used on DVDs
Duration : 1 h 59 min
Bit rate : 4 835 b/s
Count of elements : 1369
Stream size : 4.12 MiB (0%)
Language : Chinese
Default : No
Forced : No

Subtitle #9
ID : 14
Format : VobSub
Muxing mode : zlib
Codec ID : S_VOBSUB
Codec ID/Info : Picture based subtitle format used on DVDs
Duration : 1 h 59 min
Bit rate : 4 885 b/s
Count of elements : 1317
Stream size : 4.17 MiB (0%)
Language : Korean
Default : No
Forced : No

Subtitle #10
ID : 15
Format : UTF-8
Codec ID : S_TEXT/UTF8
Codec ID/Info : UTF-8 Plain Text
Duration : 2 h 13 min
Bit rate : 63 b/s
Count of elements : 1148
Stream size : 62.7 KiB (0%)
Language : Arabic
Default : No
Forced : No

Subtitle #11
ID : 16
Format : UTF-8
Codec ID : S_TEXT/UTF8
Codec ID/Info : UTF-8 Plain Text
Duration : 1 h 57 min
Bit rate : 116 b/s
Count of elements : 1217
Stream size : 100 KiB (0%)
Language : Bengali
Default : No
Forced : No

Subtitle #12
ID : 17
Format : UTF-8
Codec ID : S_TEXT/UTF8
Codec ID/Info : UTF-8 Plain Text
Duration : 1 h 59 min
Bit rate : 39 b/s
Count of elements : 1015
Stream size : 34.5 KiB (0%)
Language : Danish
Default : No
Forced : No

Subtitle #13
ID : 18
Format : UTF-8
Codec ID : S_TEXT/UTF8
Codec ID/Info : UTF-8 Plain Text
Duration : 2 h 6 min
Bit rate : 41 b/s
Count of elements : 914
Stream size : 38.0 KiB (0%)
Language : Dutch
Default : No
Forced : No

Subtitle #14
ID : 19
Format : UTF-8
Codec ID : S_TEXT/UTF8
Codec ID/Info : UTF-8 Plain Text
Duration : 2 h 9 min
Bit rate : 65 b/s
Count of elements : 1350
Stream size : 61.8 KiB (0%)
Language : Persian
Default : No
Forced : No

Subtitle #15
ID : 20
Format : UTF-8
Codec ID : S_TEXT/UTF8
Codec ID/Info : UTF-8 Plain Text
Duration : 1 h 59 min
Bit rate : 42 b/s
Count of elements : 1322
Stream size : 37.5 KiB (0%)
Language : Finnish
Default : No
Forced : No

Subtitle #16
ID : 21
Format : UTF-8
Codec ID : S_TEXT/UTF8
Codec ID/Info : UTF-8 Plain Text
Duration : 1 h 58 min
Bit rate : 49 b/s
Count of elements : 1197
Stream size : 43.0 KiB (0%)
Language : French
Default : No
Forced : No

Subtitle #17
ID : 22
Format : UTF-8
Codec ID : S_TEXT/UTF8
Codec ID/Info : UTF-8 Plain Text
Duration : 2 h 7 min
Bit rate : 54 b/s
Count of elements : 1212
Stream size : 51.5 KiB (0%)
Language : Hebrew
Default : No
Forced : No

Subtitle #18
ID : 23
Format : UTF-8
Codec ID : S_TEXT/UTF8
Codec ID/Info : UTF-8 Plain Text
Duration : 1 h 59 min
Bit rate : 44 b/s
Count of elements : 1224
Stream size : 38.5 KiB (0%)
Language : Indonesian
Default : No
Forced : No

Subtitle #19
ID : 24
Format : UTF-8
Codec ID : S_TEXT/UTF8
Codec ID/Info : UTF-8 Plain Text
Duration : 2 h 0 min
Bit rate : 45 b/s
Count of elements : 1415
Stream size : 40.5 KiB (0%)
Language : Malay
Default : No
Forced : No

Subtitle #20
ID : 25
Format : UTF-8
Codec ID : S_TEXT/UTF8
Codec ID/Info : UTF-8 Plain Text
Duration : 1 h 59 min
Bit rate : 41 b/s
Count of elements : 1323
Stream size : 36.2 KiB (0%)
Language : Norwegian
Default : No
Forced : No

Subtitle #21
ID : 26
Format : UTF-8
Codec ID : S_TEXT/UTF8
Codec ID/Info : UTF-8 Plain Text
Duration : 1 h 58 min
Bit rate : 44 b/s
Count of elements : 1182
Stream size : 38.6 KiB (0%)
Language : Portuguese
Default : No
Forced : No

Subtitle #22
ID : 27
Format : UTF-8
Codec ID : S_TEXT/UTF8
Codec ID/Info : UTF-8 Plain Text
Duration : 1 h 57 min
Bit rate : 47 b/s
Count of elements : 1227
Stream size : 41.2 KiB (0%)
Language : Romanian
Default : No
Forced : No

Subtitle #23
ID : 28
Format : UTF-8
Codec ID : S_TEXT/UTF8
Codec ID/Info : UTF-8 Plain Text
Duration : 1 h 57 min
Bit rate : 46 b/s
Count of elements : 1224
Stream size : 40.2 KiB (0%)
Language : Spanish
Default : No
Forced : No

Subtitle #24
ID : 29
Format : UTF-8
Codec ID : S_TEXT/UTF8
Codec ID/Info : UTF-8 Plain Text
Duration : 1 h 59 min
Bit rate : 40 b/s
Count of elements : 980
Stream size : 35.4 KiB (0%)
Language : Swedish
Default : No
Forced : No

Subtitle #25
ID : 30
Format : UTF-8
Codec ID : S_TEXT/UTF8
Codec ID/Info : UTF-8 Plain Text
Duration : 1 h 58 min
Bit rate : 109 b/s
Count of elements : 1211
Stream size : 94.9 KiB (0%)
Language : Thai
Default : No
Forced : No

Subtitle #26
ID : 31
Format : UTF-8
Codec ID : S_TEXT/UTF8
Codec ID/Info : UTF-8 Plain Text
Duration : 1 h 58 min
Bit rate : 45 b/s
Count of elements : 1065
Stream size : 39.7 KiB (0%)
Language : Turkish
Default : No
Forced : No

Subtitle #27
ID : 32
Format : UTF-8
Codec ID : S_TEXT/UTF8
Codec ID/Info : UTF-8 Plain Text
Duration : 1 h 58 min
Bit rate : 62 b/s
Count of elements : 1373
Stream size : 54.4 KiB (0%)
Language : Vietnamese
Default : No
Forced : No

Menu
00:00:00.000 : en:00:00:00.000
00:05:49.558 : en:00:05:49.558
00:08:34.264 : en:00:08:34.264
00:13:40.862 : en:00:13:40.862
00:16:29.197 : en:00:16:29.197
00:22:33.894 : en:00:22:33.894
00:25:19.309 : en:00:25:19.309
00:28:06.143 : en:00:28:06.143
00:31:41.817 : en:00:31:41.817
00:33:44.856 : en:00:33:44.856
00:37:02.095 : en:00:37:02.095
00:42:27.754 : en:00:42:27.754
00:49:09.113 : en:00:49:09.113
00:54:00.320 : en:00:54:00.320
00:57:19.436 : en:00:57:19.436
01:00:38.760 : en:01:00:38.760
01:08:29.981 : en:01:08:29.981
01:11:57.063 : en:01:11:57.063
01:16:50.981 : en:01:16:50.981
01:19:27.513 : en:01:19:27.513
01:25:04.850 : en:01:25:04.850
01:27:42.215 : en:01:27:42.215
01:31:43.832 : en:01:31:43.832
01:38:22.855 : en:01:38:22.855
01:42:36.817 : en:01:42:36.817
01:47:23.604 : en:01:47:23.604
01:52:58.730 : en:01:52:58.730
01:59:09.976 : en:01:59:09.976



Source Information

Code:

Release:
Unknown Source/NO-GROUP




Files:

Pirates of the Caribbean Dead Men Tell No Tales 2017 (2160p x265 10bit S89 Joy) Extras
  • A Return to Sea .mkv (18.3 MB)
  • An Enduring Tale .mkv (20.5 MB)
  • Decontrusting the Ghost Sharks .mkv (19.8 MB)
  • Deleted and Extended Scenes .mkv (14.3 MB)
  • First Mate Confidential .mkv (44.9 MB)
  • Gaffs and Bloopers .mkv (14.6 MB)
  • Telling Tales - A Sit-down with Brenton & Kaya .mkv (45.3 MB)
  • The Matador & the Bull - Secrets of Salazar & The Silent Mary .mkv (69.7 MB)
  • Uncle Jack .mkv (26.2 MB)
  • Encoded by JoyBell (UTR).txt (2.6 KB)
  • folder.jpg (14.7 KB)
  • How to play HEVC (THIS FILE).txt (3.0 KB)
  • Ninite K-Lite Codecs Unattended Silent Installer and Updater.website (0.5 KB)
  • Pirates of the Caribbean Dead Men Tell No Tales 2017 (2160p x265 10bit S89 Joy).mkv (6.0 GB)

Comments

Code:

  • udp://tracker.opentrackr.org:1337/announce
  • udp://p4p.arenabg.ch:1337/announce
  • udp://tracker.piratepublic.com:1337/announce
  • udp://tracker.leechers-paradise.org:6969/announce
  • udp://tracker.coppersurfer.tk:6969/announce
  • udp://tracker.zer0day.to:1337/announce
  • udp://p4p.arenabg.com:1337/announce
  • udp://p4p.arenabg.ch:1337/announce
  • udp://tracker.internetwarriors.net:1337/announce
  • udp://eddie4.nl:6969/announce
  • http://retracker.krs-ix.ru/announce
  • udp://tracker.torrent.eu.org:451/announce
  • udp://tracker.opentrackr.org:1337/announce