Spent 2017 720p WEB-DL x264 ESub [Moviezworldz]

  • Category Movies
  • Type HD
  • Language English
  • Total size 800.3 MB
  • Uploaded By moviezworldz
  • Downloads 230
  • Last checked 1 week ago
  • Date uploaded 2 weeks ago
  • Seeders 6
  • Leechers 3

Spent

Comedy

Poor Herbert...if only the brain tumor had killed him... A charming dark comedy with a vintage vibe. A wife and son live it up while their miser-rat of a husband/father lies in a hospital bed--death by brain tumor imminent. It's all fun and games until he experiences a miraculous 4th of July recovery.

Infohash : CF1F01772263F630715CFE13FCA88B8E38DF8984




General
Format : Matroska
Format version : Version 4 / Version 2
File size : 800 MiB
Duration : 1 h 40 min
Overall bit rate : 1 111 kb/s

Video
ID : 1
Format : AVC
Format/Info : Advanced Video Codec
Format profile : [email protected]
Format settings : CABAC / 4 Ref Frames
Format settings, CABAC : Yes
Format settings, ReFrames : 4 frames
Codec ID : V_MPEG4/ISO/AVC
Duration : 1 h 40 min
Bit rate : 1 000 kb/s
Width : 1 280 pixels
Height : 720 pixels
Display aspect ratio : 16:9
Frame rate mode : Constant
Frame rate : 23.976 (24000/1001) FPS
Color space : YUV
Chroma subsampling : 4:2:0
Bit depth : 8 bits
Scan type : Progressive
Bits/(Pixel*Frame) : 0.045
Stream size : 706 MiB (88%)
Writing library : x264 core 148 r2708 86b7198
Default : Yes
Forced : No

Audio
ID : 2
Format : AAC
Format/Info : Advanced Audio Codec
Format profile : LC
Codec ID : A_AAC-2
Duration : 1 h 40 min
Bit rate : 128 kb/s
Channel(s) : 2 channels
Channel positions : Front: L R
Sampling rate : 44.1 kHz
Frame rate : 43.066 FPS (1024 SPF)
Compression mode : Lossy
Stream size : 92.2 MiB (12%)
Language : English
Default : Yes
Forced : No

Text #1
ID : 3
Format : UTF-8
Codec ID : S_TEXT/UTF8
Codec ID/Info : UTF-8 Plain Text
Duration : 1 h 39 min
Bit rate : 48 b/s
Count of elements : 1219
Stream size : 35.3 KiB (0%)
Language : English
Default : No
Forced : No

Text #2
ID : 4
Format : UTF-8
Codec ID : S_TEXT/UTF8
Codec ID/Info : UTF-8 Plain Text
Duration : 1 h 40 min
Bit rate : 52 b/s
Count of elements : 1346
Stream size : 38.7 KiB (0%)
Title : SDH
Language : English
Default : No
Forced : No














Files:

Spent 2017 720p WEB-DL x264 ESub
  • Spent 2017 720p WEB-DL x264 ESub.mkv (800.3 MB)

There are currently no comments. Feel free to leave one :)

Code:

  • udp://tracker.coppersurfer.tk:6969/announce
  • udp://tracker.pirateparty.gr:6969/announce
  • udp://eddie4.nl:6969/announce
  • udp://tracker.leechers-paradise.org:6969/announce
  • udp://tracker.opentrackr.org:1337/announce
  • udp://p4p.arenabg.ch:1337/announce
  • udp://p4p.arenabg.com:1337/announce
  • udp://9.rarbg.me:2790/announce
  • udp://9.rarbg.to:2790/announce
  • udp://tracker.coppersurfer.tk:80/announce
  • udp://public.popcorn-tracker.org:6969/announce
  • udp://tracker.opentrackr.org:1337/announce
  • udp://tracker.zer0day.to:1337/announce
  • udp://tracker.leechers-paradise.org:6969/announce
  • udp://coppersurfer.tk:6969/announce