Non-Transferable 2017 720p WEB-DL DD 5.1 ESub [Moviezworldz]

  • Category Movies
  • Type HD
  • Language English
  • Total size 975.6 MB
  • Uploaded By moviezworldz
  • Downloads 757
  • Last checked 1 week ago
  • Date uploaded 2 weeks ago
  • Seeders 34
  • Leechers 15

Non-Transferable

Comedy

Stuck with vacation reservations in her ex-boyfriend's name, Amy Tyler decides if she can't change the tickets...why not change the guy?

Infohash : E0B12086FCE27CEDCB20538D12ECEC55989A2AF4




General
Format : Matroska
Format version : Version 4 / Version 2
File size : 976 MiB
Duration : 1 h 23 min
Overall bit rate : 1 637 kb/s

Video
ID : 1
Format : AVC
Format/Info : Advanced Video Codec
Format profile : [email protected]
Format settings : CABAC / 4 Ref Frames
Format settings, CABAC : Yes
Format settings, ReFrames : 4 frames
Codec ID : V_MPEG4/ISO/AVC
Duration : 1 h 23 min
Bit rate : 1 400 kb/s
Width : 1 280 pixels
Height : 544 pixels
Display aspect ratio : 2.35:1
Frame rate mode : Constant
Frame rate : 23.976 (24000/1001) FPS
Color space : YUV
Chroma subsampling : 4:2:0
Bit depth : 8 bits
Scan type : Progressive
Bits/(Pixel*Frame) : 0.084
Stream size : 822 MiB (84%)
Writing library : x264 core 148 r2708 86b7198
Default : Yes
Forced : No

Audio
ID : 2
Format : AC-3
Format/Info : Audio Coding 3
Codec ID : A_AC3
Duration : 1 h 23 min
Bit rate mode : Constant
Bit rate : 256 kb/s
Channel(s) : 6 channels
Channel positions : Front: L C R, Side: L R, LFE
Sampling rate : 48.0 kHz
Frame rate : 31.250 FPS (1536 SPF)
Bit depth : 16 bits
Compression mode : Lossy
Stream size : 153 MiB (16%)
Service kind : Complete Main
Default : Yes
Forced : No

Text #1
ID : 3
Format : UTF-8
Codec ID : S_TEXT/UTF8
Codec ID/Info : UTF-8 Plain Text
Duration : 1 h 23 min
Bit rate : 94 b/s
Count of elements : 1900
Stream size : 57.4 KiB (0%)
Language : English
Default : No
Forced : No

Text #2
ID : 4
Format : UTF-8
Codec ID : S_TEXT/UTF8
Codec ID/Info : UTF-8 Plain Text
Duration : 1 h 23 min
Bit rate : 96 b/s
Count of elements : 1965
Stream size : 59.1 KiB (0%)
Title : SDH
Language : English
Default : No
Forced : No












Files:

Non-Transferable 2017 720p WEB-DL DD 5.1 ESub
  • Non-Transferable 2017 720p WEB-DL DD 5.1 ESub.mkv (975.6 MB)

There are currently no comments. Feel free to leave one :)

Code:

  • udp://tracker.coppersurfer.tk:6969/announce
  • udp://tracker.pirateparty.gr:6969/announce
  • udp://eddie4.nl:6969/announce
  • udp://tracker.leechers-paradise.org:6969/announce
  • udp://tracker.opentrackr.org:1337/announce
  • udp://p4p.arenabg.ch:1337/announce
  • udp://p4p.arenabg.com:1337/announce
  • udp://9.rarbg.me:2790/announce
  • udp://9.rarbg.to:2750/announce
  • udp://tracker.coppersurfer.tk:80/announce
  • udp://public.popcorn-tracker.org:6969/announce
  • udp://tracker.opentrackr.org:1337/announce
  • udp://tracker.zer0day.to:1337/announce
  • udp://tracker.leechers-paradise.org:6969/announce
  • udp://coppersurfer.tk:6969/announce