Geostorm 2017 720p WEB-DL x264 [Moviezworldz]

  • Category Movies
  • Type HD
  • Language English
  • Total size 949.6 MB
  • Uploaded By moviezworldz
  • Downloads 242
  • Last checked 1 week ago
  • Date uploaded 2 weeks ago
  • Seeders 5
  • Leechers 4

Geostorm

Action

Gerard Butler playing a stubborn but charming satellite designer who, when the world’s climate-controlling satellites malfunction, has to work together with his estranged brother to save the world from a man-made storm of epic proportions. A trip into space follows, while on Earth a plot to assassinate the president begins to unfold.

Infohash : AFE55ECC11B613E42EA07A545DEB100AB42DEF35




General
Format : Matroska
Format version : Version 4 / Version 2
File size : 950 MiB
Duration : 1 h 49 min
Overall bit rate : 1 217 kb/s

Video
ID : 1
Format : AVC
Format/Info : Advanced Video Codec
Format profile : [email protected]
Format settings : CABAC / 4 Ref Frames
Format settings, CABAC : Yes
Format settings, ReFrames : 4 frames
Codec ID : V_MPEG4/ISO/AVC
Duration : 1 h 49 min
Bit rate : 1 100 kb/s
Width : 1 280 pixels
Height : 534 pixels
Display aspect ratio : 2.40:1
Frame rate mode : Constant
Frame rate : 23.976 (24000/1001) FPS
Color space : YUV
Chroma subsampling : 4:2:0
Bit depth : 8 bits
Scan type : Progressive
Bits/(Pixel*Frame) : 0.067
Stream size : 848 MiB (89%)
Writing library : x264 core 148 r2708 86b7198
Default : Yes
Forced : No

Audio
ID : 2
Format : AAC
Format/Info : Advanced Audio Codec
Format profile : LC
Codec ID : A_AAC-2
Duration : 1 h 49 min
Bit rate : 128 kb/s
Channel(s) : 2 channels
Channel positions : Front: L R
Sampling rate : 44.1 kHz
Frame rate : 43.066 FPS (1024 SPF)
Compression mode : Lossy
Stream size : 99.9 MiB (11%)
Language : English
Default : Yes
Forced : No

Menu
00:00:00.000 : en:1
00:04:55.462 : en:2
00:10:27.001 : en:3
00:14:11.684 : en:4
00:21:47.723 : en:5
00:25:09.800 : en:6
00:29:38.860 : en:7
00:33:10.321 : en:8
00:37:51.143 : en:9
00:41:47.170 : en:10
00:44:55.191 : en:11
00:53:08.934 : en:12
00:57:29.361 : en:13
01:00:19.447 : en:14
01:07:42.556 : en:15
01:12:17.289 : en:16
01:16:36.089 : en:17
01:21:18.079 : en:18
01:27:14.643 : en:19
01:30:25.166 : en:20











Files:

Geostorm 2017 720p WEB-DL x264
  • Geostorm 2017 720p WEB-DL x264.mkv (949.6 MB)

There are currently no comments. Feel free to leave one :)

Code:

  • udp://tracker.coppersurfer.tk:6969/announce
  • udp://tracker.pirateparty.gr:6969/announce
  • udp://eddie4.nl:6969/announce
  • udp://tracker.leechers-paradise.org:6969/announce
  • udp://tracker.opentrackr.org:1337/announce
  • udp://p4p.arenabg.ch:1337/announce
  • udp://p4p.arenabg.com:1337/announce
  • udp://9.rarbg.me:2790/announce
  • udp://9.rarbg.to:2750/announce
  • udp://tracker.coppersurfer.tk:80/announce
  • udp://public.popcorn-tracker.org:6969/announce
  • udp://tracker.opentrackr.org:1337/announce
  • udp://tracker.zer0day.to:1337/announce
  • udp://tracker.leechers-paradise.org:6969/announce
  • udp://coppersurfer.tk:6969/announce