Geostorm 2017 1080p WEB-DL DD 5.1 x264 [Moviezworldz]

  • Category Movies
  • Type HD
  • Language English
  • Total size 1.8 GB
  • Uploaded By moviezworldz
  • Downloads 2150
  • Last checked 2 weeks ago
  • Date uploaded 2 weeks ago
  • Seeders 104
  • Leechers 52

Geostorm

Action

Gerard Butler playing a stubborn but charming satellite designer who, when the world’s climate-controlling satellites malfunction, has to work together with his estranged brother to save the world from a man-made storm of epic proportions. A trip into space follows, while on Earth a plot to assassinate the president begins to unfold.

Infohash : EC7DF6F6A411F53A4FEE21BD18FF37DA369519CF




General
Format : Matroska
Format version : Version 4 / Version 2
File size : 1.77 GiB
Duration : 1 h 49 min
Overall bit rate : 2 318 kb/s

Video
ID : 1
Format : AVC
Format/Info : Advanced Video Codec
Format profile : [email protected]
Format settings : CABAC / 4 Ref Frames
Format settings, CABAC : Yes
Format settings, ReFrames : 4 frames
Codec ID : V_MPEG4/ISO/AVC
Duration : 1 h 49 min
Bit rate : 2 100 kb/s
Width : 1 916 pixels
Height : 800 pixels
Display aspect ratio : 2.40:1
Frame rate mode : Constant
Frame rate : 23.976 (24000/1001) FPS
Color space : YUV
Chroma subsampling : 4:2:0
Bit depth : 8 bits
Scan type : Progressive
Bits/(Pixel*Frame) : 0.057
Stream size : 1.57 GiB (89%)
Writing library : x264 core 148 r2708 86b7198
Default : Yes
Forced : No

Audio
ID : 2
Format : AC-3
Format/Info : Audio Coding 3
Codec ID : A_AC3
Duration : 1 h 49 min
Bit rate mode : Constant
Bit rate : 256 kb/s
Channel(s) : 6 channels
Channel positions : Front: L C R, Side: L R, LFE
Sampling rate : 48.0 kHz
Frame rate : 31.250 FPS (1536 SPF)
Bit depth : 16 bits
Compression mode : Lossy
Stream size : 200 MiB (11%)
Service kind : Complete Main
Default : Yes
Forced : No










Files:

Geostorm 2017 1080p WEB-DL DD 5.1 x264
  • Geostorm 2017 1080p WEB-DL DD 5.1 x264.mkv (1.8 GB)

Comments

Code:

  • udp://tracker.coppersurfer.tk:6969/announce
  • udp://tracker.pirateparty.gr:6969/announce
  • udp://eddie4.nl:6969/announce
  • udp://tracker.leechers-paradise.org:6969/announce
  • udp://tracker.opentrackr.org:1337/announce
  • udp://p4p.arenabg.ch:1337/announce
  • udp://p4p.arenabg.com:1337/announce
  • udp://9.rarbg.me:2790/announce
  • udp://9.rarbg.to:2750/announce
  • udp://tracker.coppersurfer.tk:80/announce
  • udp://public.popcorn-tracker.org:6969/announce
  • udp://tracker.opentrackr.org:1337/announce
  • udp://tracker.zer0day.to:1337/announce
  • udp://tracker.leechers-paradise.org:6969/announce
  • udp://coppersurfer.tk:6969/announce