Geostorm 2017 1080p HD WEBRip 6CH AAC x264 - EiE

  • Category Movies
  • Type h.264/x264
  • Language English
  • Total size 1.9 GB
  • Uploaded By samcode4u
  • Downloads 646
  • Last checked 1 week ago
  • Date uploaded 2 weeks ago
  • Seeders 92
  • Leechers 15

Geostorm

Action

Gerard Butler playing a stubborn but charming satellite designer who, when the world’s climate-controlling satellites malfunction, has to work together with his estranged brother to save the world from a man-made storm of epic proportions. A trip into space follows, while on Earth a plot to assassinate the president begins to unfold.

Infohash : DEC0557D6A58B5CCE83CE3AD27DB4157D5F67B25






Click on the link to see Screenshot:



http://lensdump.com/i/zsN9k

http://lensdump.com/i/zsDWe

http://lensdump.com/i/zsfGH

http://lensdump.com/i/zscHc



Code:


Video
ID : 1
Format : AVC
Format/Info : Advanced Video Codec
Format settings : CABAC / 4 Ref Frames
Format settings, CABAC : Yes
Format settings, RefFrames : 4 frames
Codec ID : avc1
Codec ID/Info : Advanced Video Coding
Duration : 1 h 49 min
Bit rate : 2 221 kb/s
Maximum bit rate : 12.8 Mb/s
Width : 1 912 pixels
Height : 800 pixels
Display aspect ratio : 2.40:1
Frame rate mode : Constant
Frame rate : 23.976
Color space : YUV
Chroma subsampling : 4:2:0
Bit depth : 8 bits
Scan type : Progressive
Bits/(Pixel*Frame) : 0.061
Stream size : 1.69 GiB (89%)

Audio
ID : 2
Format : AAC
Format/Info : Advanced Audio Codec
Format profile : LC
Codec ID : mp4a-40-2
Duration : 1 h 49 min
Bit rate mode : Variable
Bit rate : 265 kb/s
Maximum bit rate : 326 kb/s
Channel(s) : 6 channels
Channel positions : Front: L C R, Side: L R, LFE
Sampling rate : 48.0 kHz
Compression mode : Lossy
Stream size : 210 MiB (11%)
Language : English


Files:

Geostorm 2017 1080p HD WEBRip 6CH AAC x264 - EiE
  • Read Me.txt (0.8 KB)
  • Goestorm 2017.srt (118.1 KB)
  • Goestorm 2017.mp4 (1.9 GB)
  • ECLiPSE.txt (14.0 KB)

There are currently no comments. Feel free to leave one :)

Code:

  • udp://tracker.coppersurfer.tk:80/announce
  • udp://eddie4.nl:6969/announce
  • udp://p4p.arenabg.com:1337/announce
  • udp://shadowshq.yi.org:6969/announce
  • udp://thetracker.org:80/announce
  • udp://tracker.grepler.com:6969/announce
  • udp://tracker.internetwarriors.net:1337/announce
  • udp://tracker.opentrackr.org:1337/announce
  • udp://tracker.pirateparty.gr:6969/announce
  • udp://tracker.torrent.eu.org:451/announce
  • udp://tracker.vanitycore.co:6969/announce
  • udp://tracker.zer0day.to:1337/announce