Bleeding Steel 2017 720p HDTC x264 AAC [Moviezworldz]

  • Category Movies
  • Type h.264/x264
  • Language English
  • Total size 904.0 MB
  • Uploaded By moviezworldz
  • Downloads 7520
  • Last checked 1 week ago
  • Date uploaded 2 weeks ago
  • Seeders 356
  • Leechers 100

Bleeding Steel

ActionComedyScience Fiction

Jackie Chan stars as a hardened special forces agent who fights to protect a young woman from a sinister criminal gang. At the same time he with feels a special connection to the young woman, like they met in a different life.

Infohash : 4096ACED9C19969DD70F95ACA6AC69EE47ECDC36





General
Format : Matroska
Format version : Version 4 / Version 2
File size : 904 MiB
Duration : 1 h 46 min
Overall bit rate : 1 188 kb/s

Video
ID : 1
Format : AVC
Format/Info : Advanced Video Codec
Format profile : [email protected]
Format settings : CABAC / 4 Ref Frames
Format settings, CABAC : Yes
Format settings, ReFrames : 4 frames
Codec ID : V_MPEG4/ISO/AVC
Duration : 1 h 46 min
Bit rate : 1 100 kb/s
Width : 1 290 pixels
Height : 552 pixels
Display aspect ratio : 2.35:1
Frame rate mode : Constant
Frame rate : 25.000 FPS
Color space : YUV
Chroma subsampling : 4:2:0
Bit depth : 8 bits
Scan type : Progressive
Bits/(Pixel*Frame) : 0.062
Stream size : 829 MiB (92%)
Writing library : x264 core 148 r2708 86b7198
Default : Yes
Forced : No

Audio
ID : 2
Format : AAC
Format/Info : Advanced Audio Codec
Format profile : LC
Codec ID : A_AAC-2
Duration : 1 h 46 min
Bit rate : 96.0 kb/s
Channel(s) : 2 channels
Channel positions : Front: L R
Sampling rate : 44.1 kHz
Frame rate : 43.066 FPS (1024 SPF)
Compression mode : Lossy
Stream size : 73.1 MiB (8%)
Language : English
Default : Yes
Forced : No














Files:

Bleeding Steel 2017 720p HDTC x264 AAC
  • Bleeding Steel 2017 720p HDTC x264 AAC.mkv (904.0 MB)

Comments

Code:

  • udp://tracker.coppersurfer.tk:6969/announce
  • udp://tracker.pirateparty.gr:6969/announce
  • udp://eddie4.nl:6969/announce
  • udp://tracker.leechers-paradise.org:6969/announce
  • udp://tracker.opentrackr.org:1337/announce
  • udp://p4p.arenabg.ch:1337/announce
  • udp://p4p.arenabg.com:1337/announce
  • udp://9.rarbg.me:2790/announce
  • udp://9.rarbg.to:2750/announce
  • udp://tracker.coppersurfer.tk:80/announce
  • udp://public.popcorn-tracker.org:6969/announce
  • udp://tracker.opentrackr.org:1337/announce
  • udp://tracker.zer0day.to:1337/announce
  • udp://tracker.leechers-paradise.org:6969/announce
  • udp://coppersurfer.tk:6969/announce